#TITLE:Kiss Me;
#SUBTITLE:;
#ARTIST:H Eugene;
#TITLETRANSLIT:;
#SUBTITLETRANSLIT:;
#ARTISTTRANSLIT:;
#CREDIT:;
#BANNER:kiss me_logo.jpg;
#BACKGROUND:kiss me_bg.jpg;
#LYRICSPATH:;
#CDTITLE:Lan.png;
#MUSIC:Kiss Me.mp3;
#OFFSET:-0.040;
#SAMPLESTART:49.200;
#SAMPLELENGTH:12.000;
#SELECTABLE:YES;
#BPMS:0.000=122.000;
#STOPS:;
#BGCHANGES:;
// cache tags:
#FIRSTBEAT:12.000;
#LASTBEAT:224.000;
#SONGFILENAME:Songs/lan sky/Kiss Me/Kiss Me.sm;
#HASMUSIC:1;
#HASBANNER:1;
#MUSICLENGTH:111.951;
// end cache tags

//---------------dance-single - sky----------------
#NOTES:
     dance-single:
     sky:
     Hard:
     9:
     0.769,0.950,1.000,0.063,0.331,382.000,209.000,7.000,0.000,15.000:

0000
0000
0000
0000
,
0000
0000
0000
0000
,
0000
0000
0000
0000
,
0220
0000
0000
0000
,
1331
0010
0001
0010
0101
0000
0010
0000
1010
0100
0010
0100
1010
0000
0001
0000
,
1101
0010
0100
0010
1100
0000
0001
0000
1100
0010
0001
0010
1100
0000
0010
0000
,
1001
0010
0001
0010
0101
0000
0010
0000
1010
0100
0010
0100
1010
0000
0001
0000
,
1001
0010
1000
0010
0101
0000
0010
0000
1001
0010
0100
0010
1100
0000
0001
0000
,
1100
0010
0100
0010
1001
0000
0001
0000
1010
0001
0010
0100
1010
0000
0010
0000
,
0101
0010
0100
0001
1100
0000
0010
0000
0011
0100
0001
0010
1100
0000
0100
0000
,
1001
0010
0100
0010
0101
0000
0010
0000
1001
0010
0001
0010
1100
0000
0001
0000
,
1001
0100
0010
0100
1010
0000
0001
0000
0110
1000
0001
0010
1100
0000
0010
0000
,
1001
0010
0100
0010
1100
0000
0001
0000
1001
0010
0001
0010
1100
0000
0001
0000
,
1010
0001
0010
0001
1010
0000
0100
0000
1010
0100
0001
0010
1100
0000
0001
0000
,
1010
0100
0010
0001
0110
0000
1000
0000
0110
0001
1000
0100
1010
0000
0001
0000
,
0110
0001
0110
0001
0110
0001
0110
0001
,
1100
0000
0110
0000
0101
0000
0000
1100
,
0110
0000
0000
0011
0000
0000
0011
0000
1100
0000
0000
0000
0000
0000
0000
0110
,
0110
0000
0000
0101
0000
0000
0000
0000
1100
0000
0000
0000
0000
0000
0000
0000
,
0101
0000
0000
1100
0110
0000
0000
0000
,
0101
0000
0000
0000
1100
0000
0000
0110
,
0110
0000
0000
0110
0000
0000
0110
0000
1001
0000
0000
0000
0000
0000
0000
0110
,
0101
0000
0110
0000
,
1212
0000
1010
0000
,
1313
0000
0000
0000
0110
0000
0000
0011
,
0110
0000
0000
1100
0000
0000
1100
0000
0110
0000
0000
0000
0000
0000
0000
0110
,
0011
0000
1001
0000
,
0110
0000
0000
0000
0000
0000
1100
0000
0011
0000
0000
0000
0000
0000
0000
1100
,
1100
0000
0000
0000
0101
0000
0000
0110
,
1001
0000
0000
0110
0000
0000
0110
0000
1001
0000
0000
0000
0000
0000
0110
0000
,
1100
0000
0101
0000
,
2010
0100
0001
0010
0100
0010
0001
0010
,
3101
0100
1100
0010
0101
0010
1100
0001
,
1010
0100
1100
0010
1100
0001
0110
1000
,
0101
0010
1010
0100
0011
0100
0011
1000
,
0110
0001
1010
0100
1010
0010
1001
0010
,
1100
0001
0110
1000
0110
0001
1001
0100
,
1010
0010
0110
0001
1001
0010
0110
1000
,
0011
0100
1010
0010
0110
0001
0101
0010
,
2112
0010
0110
0100
0110
0110
0110
0010
,
3113
0000
0000
0000
0000
0000
0000
0000
0100
0000
0100
0000
0100
0000
0000
0000
0000
0000
0011
0000
0000
0000
0000
0000
0110
0000
0000
0011
0000
0000
0000
0000
0000
0000
0000
0000
0110
0000
0000
0000
0000
0000
0000
0000
0000
0000
0000
0000
,
0011
0000
0000
0000
1100
0000
0000
0101
0000
0011
0000
0000
1100
0000
0000
0000
,
0101
0000
0000
0000
0110
0000
0000
0110
0000
0101
0000
0000
1100
0000
0000
0000
,
0101
0011
1100
0110
,
0110
0000
0000
0000
1001
0000
0000
0110
0000
0110
0000
0000
1010
0000
0000
0000
,
0011
0000
0000
0000
0101
0000
0000
1001
0000
1010
0000
0000
0101
0000
0000
0000
,
0110
0000
0000
0000
1100
0000
0000
0011
0000
0011
0000
0000
1010
0000
0000
0000
,
0010
0000
0100
0000
0010
0000
0100
0000
0010
0100
0010
0100
0010
0100
0010
0100
,
1010
0100
1100
0010
0110
0001
1010
0100
,
1001
0010
1100
0010
0101
0010
0101
0100
,
1010
1000
1010
0100
0011
0001
0110
1000
,
0101
0010
1100
0100
0101
1000
0110
0001
,
0011
0100
1010
0100
0011
1000
0110
0001
,
0101
0010
1100
0010
0110
0001
0011
1000
,
1010
0100
1100
0010
0110
0001
0011
1000
,
0110
0000
0110
0000
0110
0000
0110
0000
0101
0101
0101
0101
1010
1010
1010
1010
,
1010
0000
0000
0000
;
